<?xml version="1.0" standalone="no"?>
<!DOCTYPE svg PUBLIC "-//W3C//DTD SVG 1.1//EN" "http://www.w3.org/Graphics/SVG/1.1/DTD/svg11.dtd" >
<svg xmlns="http://www.w3.org/2000/svg">
<metadata>Generated by IcoMoon</metadata>
<defs>
<font id="web3-icons" horiz-adv-x="1024">
<font-face units-per-em="1024" ascent="960" descent="-64" />
<missing-glyph horiz-adv-x="1024" />
<glyph unicode="&#x20;" horiz-adv-x="512" d="" />
<glyph unicode="&#xe900;" glyph-name="arrow-right" d="M261.237-5.606c37.028-35.663 95.96-34.565 131.627 2.467l372.364 386.555c34.728 36.052 34.728 93.113 0 129.165l-372.364 386.56c-35.668 37.028-94.599 38.13-131.627 2.462s-38.13-94.599-2.462-131.627l310.152-321.978-310.153-321.977c-35.668-37.028-34.566-95.959 2.462-131.628z" />
<glyph unicode="&#xe901;" glyph-name="arrow-left" d="M762.765 901.606c-37.028 35.668-95.96 34.566-131.628-2.462l-372.364-386.561c-34.728-36.051-34.728-93.112 0-129.165l372.364-386.564c35.668-37.022 94.599-38.13 131.627-2.458 37.028 35.667 38.131 94.598 2.462 131.626l-310.152 321.978 310.153 321.977c35.668 37.028 34.566 95.959-2.462 131.627z" />
<glyph unicode="&#xe902;" glyph-name="star" d="M553.734 911.248c-7.842 15.886-24.022 25.943-41.737 25.943s-33.896-10.057-41.737-25.943l-133.006-269.455-297.44-43.476c-17.527-2.562-32.081-14.85-37.544-31.699s-0.89-35.34 11.8-47.7l215.188-209.594-50.784-296.105c-2.996-17.461 4.184-35.111 18.519-45.521 14.336-10.416 33.339-11.785 49.020-3.54l265.986 139.88 265.984-139.88c15.681-8.245 34.686-6.877 49.019 3.54 14.341 10.41 21.518 28.059 18.523 45.521l-50.785 296.105 215.186 209.594c12.693 12.36 17.266 30.849 11.806 47.7-5.466 16.849-20.024 29.137-37.548 31.699l-297.438 43.476-133.008 269.455z" />
<glyph unicode="&#xe903;" glyph-name="right" d="M43.886 491.885c-24.237 0-43.886-19.648-43.886-43.886s19.648-43.886 43.886-43.886v87.772zM1011.146 416.967c17.139 17.138 17.139 44.925 0 62.064l-279.283 279.288c-17.139 17.139-44.927 17.139-62.066 0s-17.139-44.925 0-62.064l248.253-248.256-248.253-248.253c-17.139-17.139-17.139-44.927 0-62.066s44.927-17.139 62.066 0l279.283 279.287zM43.886 404.113h936.229v87.772h-936.229v-87.772z" />
<glyph unicode="&#xe904;" glyph-name="linkedin" d="M246.678 823.296c0.448-32.453-10.777-59.566-33.672-81.342s-53.009-32.664-90.339-32.664h-1.344c-36.434 0-65.763 10.889-87.987 32.664s-33.336 48.89-33.336 81.342c0 32.875 11.447 60.101 34.344 81.678s52.785 32.352 89.667 32.328c36.882-0.026 66.435-10.801 88.659-32.328s33.56-48.753 34.008-81.678zM232.679 619.288v-660.59h-219.986v660.59h219.986zM1023.96-41.301v378.635l0.040 0.073c0 97.335-23.108 171.224-69.324 221.668-46.21 50.446-107.325 75.668-183.325 75.668-27.999 0-53.444-3.447-76.339-10.34s-42.234-16.562-58.010-29.005c-15.781-12.444-28.338-24.003-37.668-34.68-8.866-10.139-17.526-21.871-25.983-35.196v93.842h-219.314l0.672-31.992c0.448-21.328 0.672-87.104 0.672-197.327s-0.448-253.995-1.344-431.312h219.314v368.634c0 22.65 2.439 40.642 7.314 53.98 9.337 22.672 23.447 41.673 42.333 57.003s42.333 22.995 70.333 22.995c38.226 0 66.331-13.228 84.33-39.682 17.992-26.454 26.984-63.013 26.984-109.674v-353.29h219.315z" />
<glyph unicode="&#xe905;" glyph-name="telegram" d="M866.57 97.674l154.407 676.253c6.383 28.637 2.66 49.209-11.167 61.552-13.648 12.179-31.555 14.648-53.895 6.747l-908.005-324.879c-20.564-7.241-34.392-15.306-41.66-24.358-7.269-9.216-8.332-17.774-2.482-25.838 5.495-8.229 16.664-14.484 33.505-19.091l232.409-67.313 539.097 315.003c14.71 9.217 25.883 11.191 33.505 5.925 4.784-3.128 3.543-8.064-4.080-14.484l-436.098-366.025-17.018-222.51c16.309 0 32.087 7.241 47.51 21.564l113.279 101.377 235.42-160.789c44.852-23.538 73.215-11.196 85.272 36.864z" />
<glyph unicode="&#xe906;" glyph-name="twitter" d="M696.175 859.807l-25.876-3.246c-15.898-3.4-31.802-8.349-46.763-14.069-59.549-25.818-103.353-77.606-118.785-140.217-8.261-32.31-8.261-66.166 0-97.704-31.8 0-63.445 4.173-93.531 12.368-93.842 20.715-181.293 63.074-255.806 123.52-22.759 17.778-43.647 38.184-61.886 60.446-7.015 6.956-13.406 14.377-19.174 22.416-9.821-17.006-17.459-35.093-22.603-53.954-15.745-67.094 1.558-137.589 46.765-189.687 10.911-13.142 27.747-21.488 38.503-33.083-9.508-1.701-19.329-0.773-28.526 2.319-15.121 2.628-29.93 6.648-44.271 12.522l-22.447 8.349c-2.65-73.124 35.074-141.763 98.674-179.021 19.953-14.998 43.336-23.96 68.434-27.364-13.406-11.593-72.798-6.646-93.687-4.172 20.889-63.072 70.303-111.928 132.969-133.413 20.109-7.426 40.997-10.824 61.887-10.824-17.303-14.374-36.477-26.589-56.898-36.332-39.282-21.334-81.371-36.791-125.331-45.602-19.174-4.33-39.127-3.405-60.95-6.652-22.291-1.7-44.739-0.925-66.874 2.323l18.394-10.667c19.174-11.593 38.348-21.491 59.392-29.837 40.062-16.539 81.060-29.837 122.836-39.73 98.519-20.717 201.403-17.313 298.363 9.893 219.015 68.019 357.598 227.102 410.446 461.62 8.418 43.905 11.69 89.509 10.129 134.189l33.205 27.517c27.902 23.189 51.909 50.552 71.236 81.162-37.879-16.542-77.785-27.518-118.779-32.464 8.418 4.173 15.898 10.048 23.378 16.696 31.802 25.662 55.187 59.518 67.813 97.704l-26.033-13.913c-33.828-18.088-70.619-30.146-108.649-35.712-42.56 44.678-102.73 68.64-164.616 65.394v-0.773h-0.938z" />
<glyph unicode="&#xe907;" glyph-name="wallet" d="M418.91 773.818c0 25.706-20.839 46.546-46.546 46.546h-232.727c-25.706 0-46.546-20.84-46.546-46.546v-46.546h325.818v46.546zM512 727.272h232.727c102.823 0 186.182-83.356 186.182-186.182v-46.546h46.546c25.707 0 46.546-20.839 46.546-46.546v-186.182c0-25.707-20.839-46.546-46.546-46.546h-46.546v-46.546c0-102.823-83.358-186.182-186.182-186.182h-558.545c-102.826 0-186.182 83.358-186.182 186.182v605.090c0 77.118 62.518 139.636 139.636 139.636h232.727c77.121 0 139.636-62.518 139.636-139.636v-46.546zM512 634.182h-418.909v-465.454c0-51.414 41.678-93.090 93.090-93.090h558.545c51.414 0 93.090 41.677 93.090 93.090v46.546h-139.636c-77.121 0-139.636 62.516-139.636 139.636s62.516 139.636 139.636 139.636h139.636v46.546c0 51.412-41.677 93.090-93.090 93.090h-232.727zM698.182 308.364h232.727v93.090h-232.727c-25.707 0-46.546-20.839-46.546-46.546s20.839-46.546 46.546-46.546z" />
<glyph unicode="&#xe908;" glyph-name="right-short" d="M805.504 383.999l-338.746-338.746c-24.992-24.992-24.992-65.517 0-90.509 24.999-24.992 65.517-24.992 90.509 0l447.553 447.547c25.242 25.248 25.242 66.176 0 91.418l-447.553 447.547c-24.992 24.993-65.511 24.993-90.509 0-24.992-24.995-24.992-65.516 0-90.51l338.746-338.746h-745.489c-33.137 0-60-28.653-60-64.001s26.864-64.001 60-64.001h745.489z" />
<glyph unicode="&#xe909;" glyph-name="check-circle" d="M295.026 421.737c-14.219 14.219-37.271 14.219-51.49 0s-14.219-37.271 0-51.49l137.307-137.31c14.219-14.214 37.271-14.214 51.489 0l343.271 343.27c14.214 14.219 14.214 37.271 0 51.49-14.221 14.219-37.276 14.219-51.489 0l-317.526-317.522-111.562 111.562zM0.001 447.998c0 281.601 230.401 512.002 512.002 512.002s511.998-230.401 511.998-512.002c0-281.602-230.396-511.998-511.998-511.998s-512.002 230.396-512.002 511.998zM682.673 46.931c51.198 25.602 93.862 51.198 136.534 93.862 42.665 34.137 76.793 85.336 93.862 136.534 25.602 51.205 34.137 110.937 34.137 170.671s-8.534 119.467-34.137 170.667c-25.602 51.2-51.198 93.867-93.862 136.534-34.137 42.667-85.336 68.267-136.534 93.867-51.205 25.6-110.937 34.133-170.671 34.133s-119.467-8.533-170.667-34.133c-51.2-25.6-93.867-51.2-136.534-93.867-42.667-34.133-68.267-85.334-93.867-136.534s-34.133-110.934-34.133-170.667c0-59.734 8.533-119.467 34.133-170.671 25.6-51.198 51.2-93.862 93.867-136.534 34.133-42.665 85.334-68.26 136.534-93.862s110.934-34.137 170.667-34.137c59.734 0 119.467 8.534 170.671 34.137z" />
<glyph unicode="&#xe90a;" glyph-name="caret-bottom" d="M611.456 113.843l388.727 524.461c40.218 54.26 28.288 130.452-26.642 170.178-21.128 15.28-46.634 23.518-72.824 23.518h-777.449c-68.080 0-123.27-54.516-123.27-121.764 0-25.866 8.338-51.060 23.808-71.93l388.727-524.461c40.218-54.264 117.35-66.048 172.28-26.316 10.198 7.372 19.182 16.248 26.642 26.316z" />
<glyph unicode="&#xe90b;" glyph-name="search" d="M456.433 175.136c72.87 0.013 143.64 24.41 201.045 69.299l180.474-180.474 58.048 58.048-180.474 180.474c44.915 57.408 69.325 128.195 69.338 201.084 0 181.090-147.341 328.433-328.431 328.433s-328.433-147.343-328.433-328.433c0-181.090 147.343-328.431 328.433-328.431zM456.433 749.892c135.848 0 246.325-110.477 246.325-246.325s-110.477-246.325-246.325-246.325c-135.848 0-246.325 110.477-246.325 246.325s110.477 246.325 246.325 246.325z" />
<glyph unicode="&#xe90c;" glyph-name="caret-top" d="M412.544 782.157l-388.727-524.461c-40.218-54.26-28.288-130.452 26.642-170.178 21.128-15.28 46.634-23.518 72.824-23.518h777.449c68.080 0 123.27 54.516 123.27 121.764 0 25.866-8.338 51.060-23.808 71.93l-388.727 524.461c-40.218 54.264-117.35 66.048-172.28 26.316-10.198-7.372-19.182-16.248-26.642-26.316z" />
<glyph unicode="&#xe90d;" glyph-name="copy" d="M469.334 354.134c-28.277 0-51.2 22.921-51.2 51.2v384c0 28.277 22.923 51.2 51.2 51.2h383.998c28.279 0 51.2-22.923 51.2-51.2v-384c0-28.279-22.921-51.2-51.2-51.2h-383.998zM349.867 405.334c0-65.98 53.487-119.467 119.467-119.467h383.998c65.98 0 119.467 53.487 119.467 119.467v384c0 65.98-53.487 119.467-119.467 119.467h-383.998c-65.98 0-119.467-53.487-119.467-119.467v-384zM170.667 55.467c-13.579 0-26.602 5.393-36.204 14.996s-14.996 22.625-14.996 36.204v384c0 13.579 5.394 26.602 14.996 36.204s22.625 14.996 36.204 14.996h42.667c18.851 0 34.133 15.282 34.133 34.133s-15.282 34.133-34.133 34.133h-42.667c-31.685 0-62.071-12.587-84.476-34.991s-34.991-52.791-34.991-84.476v-384c0-31.687 12.587-62.071 34.991-84.474s52.791-34.992 84.476-34.992h384c31.685 0 62.069 12.59 84.478 34.992 22.403 22.403 34.987 52.787 34.987 84.474v42.667c0 18.853-15.28 34.133-34.133 34.133-18.847 0-34.133-15.28-34.133-34.133v-42.667c0-13.579-5.393-26.601-14.996-36.204-9.597-9.603-22.623-14.996-36.202-14.996h-384z" />
<glyph unicode="&#xe90e;" glyph-name="check" d="M1000.913 769.585c-30.132 29.229-78.254 28.496-107.483-1.637l-491.352-506.535c-6.222-6.009-16.139-5.888-22.213 0.295l-251.514 256.022c-29.567 28.098-76.285 27.904-105.602-0.89-29.951-29.416-30.384-77.541-0.968-107.491l251.639-256.181c65.109-64.113 169.841-64.389 235.278-0.121 0.967 0.949 1.923 1.912 2.867 2.884l492.759 508.062c27.411 30.238 26.098 76.967-3.412 105.592z" />
<glyph unicode="&#xe90f;" glyph-name="arrow-top" d="M965.606 197.235c35.668 37.028 34.566 95.96-2.462 131.628l-386.561 372.364c-36.051 34.728-93.112 34.728-129.165 0l-386.564-372.364c-37.022-35.668-38.13-94.599-2.458-131.627 35.667-37.028 94.598-38.131 131.626-2.462l321.978 310.152 321.977-310.153c37.028-35.668 95.959-34.566 131.627 2.462z" />
<glyph unicode="&#xe910;" glyph-name="arrow-bottom" d="M58.394 698.765c-35.668-37.028-34.566-95.96 2.462-131.628l386.561-372.364c36.051-34.728 93.112-34.728 129.165 0l386.564 372.364c37.022 35.668 38.13 94.599 2.458 131.627-35.667 37.028-94.598 38.131-131.626 2.462l-321.978-310.152-321.977 310.153c-37.028 35.668-95.959 34.566-131.627-2.462z" />
<glyph unicode="&#xe911;" glyph-name="check1" d="M1007.339 801c22.215-22.217 22.215-58.236 0-80.454l-625.376-625.375c-22.44-22.443-58.82-22.437-81.258 0l-284.043 284.041c-22.216 22.215-22.216 58.237 0 80.452s58.236 22.215 80.454 0l244.218-244.219 585.553 585.553c22.215 22.216 58.237 22.216 80.452 0z" />
<glyph unicode="&#xe912;" glyph-name="plus" d="M576 896c0 35.346-28.653 64-64 64s-64-28.654-64-64v-383.999h-383.999c-35.346 0-64-28.653-64-64s28.654-64 64-64h383.999v-383.999c0-35.347 28.653-64 64-64s64 28.653 64 64v383.999h383.999c35.347 0 64 28.653 64 64s-28.653 64-64 64h-383.999v383.999z" />
<glyph unicode="&#xe913;" glyph-name="setting" d="M731.7 98.663c-13.847-8.164-30.161-12.688-47.104-12.684h-342.070c-16.8 0.004-32.99 4.464-46.766 12.512-13.749 8.033-24.311 19.181-31.068 31.665l-153.398 283.173c-5.947 10.976-8.897 22.853-8.897 34.671s2.957 23.705 8.903 34.681l153.397 283.227c6.761 12.476 17.307 23.587 31.053 31.612 13.779 8.047 29.976 12.5 46.778 12.5h342.051c35.053 0 64.502-18.958 78.206-44.744l150.212-283.168c11.479-21.639 11.436-46.685 0.010-68.208l-150.249-283.224c-6.693-12.614-17.241-23.873-31.055-32.014zM244.49 8.955c29.56-17.273 63.468-26.405 98.038-26.41h342.051c34.844-0.010 69.009 9.257 98.733 26.777s53.844 42.608 69.707 72.5l150.244 283.224c27.648 52.075 27.648 113.775 0 165.906l-150.244 283.224c-32.344 60.896-97.392 99.278-168.438 99.278h-342.051c-34.563 0.001-68.468-9.124-98.027-26.385s-53.645-41.996-69.639-71.518l-153.396-283.225c-14.103-26.032-21.468-54.961-21.468-84.326s7.365-58.294 21.468-84.326l153.396-283.168c15.986-29.533 40.068-54.281 69.628-71.549zM511.997 349.267c-12.223 0-24.329 2.429-35.626 7.159-11.292 4.725-21.555 11.65-30.199 20.383s-15.5 19.097-20.182 30.506c-4.678 11.409-7.084 23.636-7.084 35.985s2.407 24.576 7.084 35.985c4.682 11.409 11.539 21.773 20.182 30.506s18.907 15.658 30.199 20.383c11.296 4.725 23.403 7.159 35.626 7.159 24.687 0 48.365-9.91 65.824-27.541 17.459-17.636 27.266-41.552 27.266-66.49s-9.807-48.854-27.266-66.49c-17.459-17.636-41.137-27.541-65.824-27.541zM440.75 269.549c22.588-9.448 46.797-14.313 71.247-14.313 49.38 0 96.735 19.814 131.649 55.082 34.919 35.268 54.532 83.102 54.532 132.981s-19.615 97.713-54.532 132.98c-34.913 35.268-82.269 55.082-131.649 55.082-24.451 0-48.659-4.864-71.247-14.315-22.591-9.451-43.115-23.304-60.404-40.767s-31.003-38.195-40.359-61.011c-9.357-22.816-14.172-47.271-14.172-71.968s4.815-49.152 14.172-71.968c9.357-22.816 23.071-43.548 40.359-61.011s37.813-31.316 60.404-40.769z" />
<glyph unicode="&#xe914;" glyph-name="circle-warning" d="M503.464 413.869c25.603 0 42.667 17.064 42.667 42.667v238.932c0 25.6-17.064 42.667-42.667 42.667-25.597 0-42.665-17.067-42.665-42.667v-238.932c8.534-25.603 25.603-42.667 42.665-42.667zM503.464 192.003c34.132 0 59.735 25.597 59.735 59.73 0 34.137-25.603 59.735-59.735 59.735s-59.733-25.597-59.733-59.735c8.534-34.132 34.134-59.73 59.733-59.73zM511.999 960c-281.6 0-511.999-230.4-511.999-511.999s230.4-512 511.999-512c281.601 0 512 230.4 512 512s-230.4 511.999-512 511.999zM819.197 140.803c-42.667-42.667-85.333-68.269-136.533-93.867-51.2-25.603-110.93-34.132-170.665-34.132s-119.467 8.529-170.666 34.132c-51.2 25.597-102.4 51.2-136.533 93.867-42.667 42.667-68.267 85.333-93.867 136.533s-34.133 110.93-34.133 170.665c0 59.734 8.534 119.467 34.133 170.666s51.2 102.4 93.867 136.533c42.667 42.667 85.333 68.267 136.533 93.867s110.933 34.133 170.666 34.133c59.735 0 119.465-8.534 170.665-34.133s102.401-51.2 136.533-93.867c42.667-42.667 68.269-85.333 93.867-136.533 25.603-51.2 34.132-110.933 34.132-170.666 0-59.735-8.529-119.465-34.132-170.665-17.064-51.2-51.2-102.401-93.867-136.533z" />
<glyph unicode="&#xe915;" glyph-name="circle-close" d="M682.664 285.869c17.068 17.064 17.068 34.132 0 51.196l-119.465 119.469 119.465 119.466c17.068 17.067 17.068 34.133 0 51.2-17.064 17.067-34.132 17.067-51.2 0l-119.465-119.467-119.467 119.467c-8.534 8.534-25.6 17.067-34.133 8.534s-25.601-17.067-25.601-25.601c0-8.534 0-25.6 8.534-34.133l119.466-119.466-119.466-119.469c-17.067-17.064-17.067-34.132 0-51.196 17.067-17.068 34.133-17.068 51.2 0l119.467 119.465 119.465-119.465c17.068-17.068 34.137-17.068 51.2 0zM511.999 960c-281.6 0-511.999-230.4-511.999-511.999s230.4-512 511.999-512c281.601 0 512 230.4 512 512s-230.4 511.999-512 511.999zM819.197 140.803c-42.667-42.667-85.333-68.269-136.533-93.867-51.2-25.603-110.93-34.132-170.665-34.132s-119.467 8.529-170.666 34.132c-51.2 25.597-102.4 51.2-136.533 93.867-42.667 42.667-68.267 85.333-93.867 136.533s-34.133 110.93-34.133 170.665c0 59.734 8.534 119.467 34.133 170.666s51.2 102.4 93.867 136.533c42.667 42.667 85.333 68.267 136.533 93.867s110.933 34.133 170.666 34.133c59.735 0 119.465-8.534 170.665-34.133s102.401-51.2 136.533-93.867c42.667-42.667 68.269-85.333 93.867-136.533 25.603-51.2 34.132-110.933 34.132-170.666 0-59.735-8.529-119.465-34.132-170.665-17.064-51.2-51.2-102.401-93.867-136.533z" />
<glyph unicode="&#xe916;" glyph-name="circle-check" d="M295.023 421.738c-14.219 14.219-37.271 14.219-51.49 0s-14.219-37.268 0-51.487l137.307-137.305c14.219-14.219 37.271-14.219 51.49 0l343.265 343.265c14.219 14.219 14.219 37.271 0 51.49s-37.268 14.219-51.487 0l-317.523-317.525-111.561 111.561zM-0.001 448.001c0 281.601 230.4 512 512 512s512.001-230.4 512.001-512c0-281.602-230.4-512.001-512.001-512.001s-512 230.4-512 512.001zM682.664 46.934c51.2 25.597 93.867 51.2 136.533 93.867 42.667 34.132 76.804 85.333 93.867 136.533 25.603 51.2 34.132 110.93 34.132 170.665s-8.529 119.467-34.132 170.666c-25.597 51.2-51.2 93.867-93.867 136.533-34.132 42.667-85.333 68.267-136.533 93.867s-110.93 34.133-170.665 34.133c-59.734 0-119.467-8.534-170.666-34.133s-93.867-51.2-136.533-93.867c-42.667-34.133-68.267-85.333-93.867-136.533s-34.133-110.933-34.133-170.666c0-59.735 8.534-119.465 34.133-170.665s51.2-93.867 93.867-136.533c34.133-42.667 85.333-68.269 136.533-93.867 51.2-25.603 110.933-34.132 170.666-34.132s119.465 8.529 170.665 34.132z" />
<glyph unicode="&#xe917;" glyph-name="circle-close-fill" d="M512 960c-282.772 0-512-229.229-512-512.001s229.228-511.999 511.999-511.999c282.77 0 512.001 229.228 512.001 511.999s-229.228 512.001-511.999 512.001h-0.001zM731.566 294.81c18.328-18.334 18.328-48.048 0-66.377s-48.049-18.328-66.377 0l-153.189 153.19-153.194-153.189c-18.33-18.327-48.043-18.327-66.371 0-18.335 18.33-18.335 48.044 0 66.377l153.188 153.188-153.189 153.19c-18.334 18.329-18.334 48.048 0 66.377 18.33 18.328 48.043 18.328 66.371 0l153.195-153.189 153.189 153.189c18.329 18.328 48.049 18.328 66.377 0s18.328-48.048 0-66.377l-153.19-153.19 153.19-153.189z" />
<glyph unicode="&#xe918;" glyph-name="left-short" d="M218.496 512.001l338.746 338.746c24.992 24.992 24.992 65.517 0 90.509-24.999 24.992-65.517 24.992-90.509 0l-447.553-447.547c-25.242-25.248-25.242-66.176 0-91.418l447.553-447.547c24.992-24.993 65.511-24.993 90.509 0 24.992 24.995 24.992 65.516 0 90.51l-338.746 338.746h745.489c33.137 0 60 28.653 60 64.001s-26.864 64.001-60 64.001h-745.489z" />
<glyph unicode="&#xe919;" glyph-name="share" d="M1009.001 945.001c5.069-5.065 8.848-10.927 11.344-17.183 2.358-5.88 3.655-12.3 3.655-19.021v-307.199c0-28.277-22.925-51.2-51.203-51.2s-51.203 22.924-51.203 51.2v183.591l-475.792-475.795c-19.994-19.997-52.412-19.997-72.408 0-19.994 19.994-19.994 52.412 0 72.408l475.793 475.795h-183.59c-28.277 0-51.2 22.924-51.2 51.2s22.924 51.2 51.2 51.2l307.353-0.001c13.056-0.038 26.089-5.038 36.050-14.996zM117.395 689.001c9.601 9.602 22.625 14.996 36.204 14.996h307.199c28.277 0 51.2 22.924 51.2 51.2s-22.924 51.2-51.2 51.2h-307.199c-40.738 0-79.806-16.183-108.611-44.989s-44.989-67.874-44.989-108.611v-563.196c0-40.742 16.182-79.811 44.989-108.618 28.805-28.8 67.874-44.982 108.611-44.982h563.202c40.735 0 79.802 16.182 108.611 44.982 28.8 28.807 44.989 67.875 44.989 108.618v307.196c0 28.277-22.925 51.2-51.203 51.2s-51.203-22.924-51.203-51.2v-307.196c0-13.586-5.392-26.604-14.992-36.211-9.607-9.6-22.625-14.992-36.204-14.992h-563.202c-13.579 0-26.602 5.392-36.204 14.992-9.602 9.607-14.996 22.625-14.996 36.211v563.196c0 13.579 5.394 26.602 14.996 36.204z" />
<glyph unicode="&#xe91a;" glyph-name="discord" d="M868.189 772.202c-0.279 0.552-0.755 0.984-1.325 1.219-66.397 30.461-136.46 52.183-208.435 64.621-0.656 0.122-1.331 0.034-1.932-0.25s-1.096-0.752-1.418-1.334c-9.542-17.315-18.199-35.101-25.951-53.29-77.587 11.778-156.51 11.778-234.1 0-7.799 18.235-16.598 36.025-26.358 53.29-0.334 0.57-0.834 1.026-1.431 1.309s-1.266 0.379-1.92 0.276c-71.987-12.411-142.054-34.135-208.437-64.623-0.568-0.241-1.048-0.652-1.373-1.177-132.753-198.249-169.118-391.621-151.279-582.601 0.050-0.47 0.194-0.923 0.422-1.338 0.229-0.408 0.538-0.767 0.909-1.059 77.301-57.239 163.763-100.923 255.696-129.202 0.647-0.192 1.339-0.186 1.981 0.025s1.205 0.613 1.612 1.152c19.745 26.867 37.241 55.32 52.309 85.059 0.207 0.408 0.325 0.854 0.347 1.313s-0.053 0.916-0.222 1.338c-0.168 0.428-0.423 0.811-0.751 1.133s-0.718 0.569-1.148 0.725c-27.59 10.558-54.3 23.282-79.879 38.056-0.465 0.272-0.854 0.656-1.136 1.115-0.281 0.465-0.445 0.985-0.477 1.523s0.070 1.078 0.294 1.566c0.225 0.489 0.568 0.916 0.997 1.239 5.382 4.025 10.672 8.168 15.863 12.433 0.455 0.371 1.006 0.613 1.59 0.693 0.584 0.074 1.18-0.007 1.719-0.248 167.583-76.484 349.011-76.484 514.616 0 0.539 0.254 1.14 0.353 1.734 0.279 0.588-0.069 1.152-0.309 1.616-0.687 5.195-4.285 10.496-8.446 15.901-12.47 0.433-0.322 0.774-0.743 1.004-1.232s0.334-1.027 0.309-1.561c-0.030-0.539-0.186-1.064-0.465-1.523-0.279-0.465-0.668-0.848-1.133-1.127-25.517-14.897-52.255-27.616-79.914-38.019-0.428-0.161-0.817-0.415-1.145-0.737-0.329-0.329-0.576-0.712-0.743-1.145-0.168-0.428-0.235-0.886-0.21-1.343s0.149-0.91 0.359-1.319c15.319-29.579 32.787-57.988 52.267-85.010 0.396-0.557 0.953-0.972 1.598-1.189 0.65-0.217 1.343-0.229 1.994-0.030 92.1 28.18 178.714 71.871 256.107 129.197 0.378 0.272 0.693 0.626 0.923 1.034 0.229 0.403 0.371 0.854 0.415 1.319 21.356 220.793-35.758 412.584-151.401 582.604zM342.189 305.927c-50.455 0-92.028 46.298-92.028 103.163 0 56.863 40.766 103.168 92.028 103.168 51.662 0 92.833-46.707 92.026-103.164 0-56.869-40.769-103.167-92.026-103.167zM682.442 305.927c-50.452 0-92.025 46.298-92.025 103.163 0 56.863 40.769 103.168 92.025 103.168 51.666 0 92.837-46.707 92.032-103.164 0-56.869-40.366-103.167-92.032-103.167z" />
<glyph unicode="&#xe91b;" glyph-name="left" d="M980.114 404.115c24.237 0 43.886 19.648 43.886 43.886s-19.648 43.886-43.886 43.886v-87.772zM12.854 479.033c-17.139-17.138-17.139-44.925 0-62.064l279.283-279.288c17.139-17.139 44.927-17.139 62.066 0s17.139 44.925 0 62.064l-248.253 248.256 248.253 248.253c17.139 17.139 17.139 44.927 0 62.066s-44.927 17.139-62.066 0l-279.283-279.287zM980.114 491.887h-936.229v-87.772h936.229v87.772z" />
<glyph unicode="&#xe91c;" glyph-name="bottom" d="M555.885 916.114c0 24.237-19.648 43.886-43.886 43.886s-43.886-19.648-43.886-43.886h87.772zM480.967-51.146c17.138-17.139 44.925-17.139 62.064 0l279.288 279.283c17.139 17.139 17.139 44.927 0 62.066s-44.925 17.139-62.064 0l-248.256-248.253-248.253 248.253c-17.139 17.139-44.927 17.139-62.066 0s-17.139-44.927 0-62.066l279.287-279.283zM468.113 916.114v-936.229h87.772v936.229h-87.772z" />
<glyph unicode="&#xe91d;" glyph-name="top" d="M468.115-20.114c0-24.237 19.648-43.886 43.886-43.886s43.886 19.648 43.886 43.886h-87.772zM543.033 947.146c-17.138 17.139-44.925 17.139-62.064 0l-279.288-279.283c-17.139-17.139-17.139-44.927 0-62.066s44.925-17.139 62.064 0l248.256 248.253 248.253-248.253c17.139-17.139 44.927-17.139 62.066 0s17.139 44.927 0 62.066l-279.287 279.283zM555.887-20.114v936.229h-87.772v-936.229h87.772z" />
<glyph unicode="&#xe91e;" glyph-name="facebook" d="M750.139 959.703v-164.745c0 0-121.054 12.079-151.317-34.492-16.621-25.404-6.697-99.868-8.187-153.412h160.497c-13.646-62.511-23.318-104.974-33.241-159.017h-128.124v-512.038h-222.264c0 157.896-0.122 341.939 0 509.921h-94.635v161.133h93.519c4.838 117.798 6.7 234.476 64.994 293.874 65.363 66.743 127.877 58.775 318.76 58.775z" />
<glyph unicode="&#xe91f;" glyph-name="instagram" d="M512 960c139.11 0 156.467-0.512 211.046-3.072 54.527-2.56 91.647-11.11 124.314-23.807 33.792-13.005 62.259-30.617 90.726-59.034 26.035-25.595 46.182-56.555 59.034-90.726 12.646-32.615 21.247-69.785 23.807-124.314 2.406-54.579 3.072-71.936 3.072-211.046s-0.512-156.467-3.072-211.046c-2.56-54.527-11.161-91.647-23.807-124.314-12.819-34.189-32.966-65.159-59.034-90.726-25.6-26.029-56.564-46.17-90.726-59.034-32.615-12.646-69.785-21.247-124.314-23.807-54.579-2.406-71.936-3.072-211.046-3.072s-156.467 0.512-211.046 3.072c-54.527 2.56-91.647 11.161-124.314 23.807-34.185 12.825-65.151 32.972-90.726 59.034-26.040 25.594-46.186 56.55-59.034 90.726-12.697 32.615-21.247 69.785-23.807 124.314-2.406 54.579-3.072 71.936-3.072 211.046s0.512 156.467 3.072 211.046c2.56 54.579 11.11 91.647 23.807 124.314 12.812 34.192 32.962 65.161 59.034 90.726 25.584 26.049 56.546 46.196 90.726 59.034 32.665 12.697 69.735 21.247 124.314 23.807 54.579 2.406 71.936 3.072 211.046 3.072zM512 704c-33.619 0-66.907-6.621-97.966-19.486s-59.281-31.722-83.052-55.494c-23.771-23.772-42.629-51.992-55.494-83.052s-19.486-64.349-19.486-97.966c0-33.619 6.621-66.905 19.486-97.965s31.722-59.284 55.494-83.052c23.772-23.776 51.992-42.63 83.052-55.495s64.349-19.487 97.966-19.487c67.897 0 133.011 26.97 181.017 74.982 48.012 48.006 74.982 113.12 74.982 181.017s-26.97 133.010-74.982 181.020c-48.006 48.009-113.12 74.98-181.017 74.98zM844.8 716.8c0 16.974-6.745 33.252-18.745 45.255s-28.281 18.745-45.255 18.745c-16.972 0-33.255-6.742-45.255-18.745s-18.745-28.281-18.745-45.255c0-16.974 6.745-33.252 18.745-45.255s28.281-18.745 45.255-18.745c16.972 0 33.255 6.742 45.255 18.745s18.745 28.281 18.745 45.255zM512 601.6c40.736 0 79.807-16.182 108.615-44.989 28.8-28.806 44.985-67.875 44.985-108.611s-16.185-79.807-44.985-108.615c-28.806-28.8-67.879-44.985-108.615-44.985s-79.806 16.185-108.611 44.985c-28.805 28.806-44.989 67.879-44.989 108.615s16.182 79.806 44.989 108.611 67.875 44.989 108.611 44.989z" />
<glyph unicode="&#xe920;" glyph-name="union" d="M512.001 866.908c-231.356 0-418.908-187.552-418.908-418.908 0-231.353 187.552-418.905 418.908-418.905s418.908 187.552 418.908 418.905c0 231.356-187.552 418.908-418.908 418.908zM0.002 448c0 282.769 229.23 511.999 511.999 511.999s511.996-229.23 511.996-511.999c0-282.767-229.227-512.001-511.996-512.001s-511.999 229.233-511.999 512.001zM465.455 215.271c0 25.707 20.84 46.548 46.546 46.548h0.465c25.706 0 46.546-20.841 46.546-46.548s-20.84-46.54-46.546-46.54h-0.465c-25.706 0-46.546 20.834-46.546 46.54zM461.11 621.558c18.952 11.139 41.237 15.212 62.905 11.494s41.321-14.981 55.479-31.8c14.158-16.819 21.906-38.105 21.874-60.089v-0.070c0-21.836-16.994-44.601-49.091-65.999-14.632-9.755-29.596-17.269-41.085-22.376-5.678-2.524-10.346-4.388-13.484-5.583-1.565-0.597-2.739-1.022-3.455-1.276l-0.743-0.261c-24.356-8.148-37.513-34.489-29.389-58.86 8.129-24.387 34.489-37.566 58.876-29.437l-14.719 44.157c14.719-44.157 14.763-44.141 14.777-44.137l0.072 0.024 0.696 0.237 1.617 0.566c1.33 0.472 3.156 1.138 5.409 1.996 4.498 1.714 10.739 4.213 18.152 7.508 14.692 6.531 34.638 16.471 54.915 29.988 37.713 25.142 90.522 72.182 90.543 143.413 0.063 43.959-15.436 86.521-43.745 120.152-28.316 33.637-67.622 56.167-110.958 63.6s-87.904-0.71-125.81-22.989c-37.907-22.278-66.706-57.253-81.297-98.729-8.531-24.25 4.213-50.823 28.462-59.354s50.823 4.212 59.354 28.462c7.295 20.739 21.695 38.226 40.648 49.365z" />
<glyph unicode="&#xe921;" glyph-name="order" d="M568 345.6h-224c-14.852 0-29.096-5.395-39.598-14.996s-16.402-22.623-16.402-36.204c0-13.581 5.9-26.605 16.402-36.205s24.746-14.995 39.598-14.995h224c14.852 0 29.096 5.395 39.598 14.995s16.402 22.624 16.402 36.205c0 13.581-5.9 26.602-16.402 36.204s-24.746 14.996-39.598 14.996zM792 857.6h-66.080c-11.552 29.878-32.932 55.757-61.204 74.090s-62.054 28.221-96.716 28.31h-112c-34.661-0.089-68.444-9.978-96.716-28.31s-49.651-44.212-61.204-74.090h-66.080c-44.556 0-87.288-16.183-118.794-44.988s-49.206-67.875-49.206-108.612v-614.4c0-40.736 17.7-79.808 49.206-108.614 31.506-28.8 74.238-44.986 118.794-44.986h560c44.557 0 87.29 16.186 118.797 44.986 31.501 28.806 49.203 67.878 49.203 108.614v614.4c0 40.737-17.702 79.806-49.203 108.612-31.507 28.805-74.24 44.988-118.797 44.988zM400 806.4c0 13.579 5.9 26.602 16.402 36.204s24.746 14.996 39.598 14.996h112c14.852 0 29.096-5.395 39.598-14.996s16.402-22.625 16.402-36.204v-51.2h-224v51.2zM848 89.6c0-13.581-5.901-26.605-16.403-36.205s-24.742-14.995-39.597-14.995h-560c-14.852 0-29.096 5.395-39.598 14.995s-16.402 22.624-16.402 36.205v614.4c0 13.579 5.9 26.602 16.402 36.204s24.746 14.996 39.598 14.996h56v-51.2c0-13.579 5.9-26.602 16.402-36.204s24.746-14.996 39.598-14.996h336c14.852 0 29.094 5.395 39.597 14.996s16.403 22.625 16.403 36.204v51.2h56c14.854 0 29.094-5.395 39.597-14.996s16.403-22.625 16.403-36.204v-614.4zM680 550.4h-336c-14.852 0-29.096-5.395-39.598-14.996s-16.402-22.625-16.402-36.204c0-13.579 5.9-26.602 16.402-36.204s24.746-14.996 39.598-14.996h336c14.852 0 29.094 5.395 39.597 14.996s16.403 22.625 16.403 36.204c0 13.579-5.901 26.602-16.403 36.204s-24.745 14.996-39.597 14.996z" />
<glyph unicode="&#xe922;" glyph-name="loading" d="M0.001 122.182h93.091v-186.182h-93.091v186.182zM232.727 354.91h93.091v-372.363h-93.091v372.363zM465.454 680.727h93.091v-558.545h-93.091v558.545zM698.182 960h93.091v-651.636h-93.091v651.636zM930.909 494.546h93.091v-465.455h-93.091v465.455z" />
<glyph unicode="&#xe923;" glyph-name="question-filled" d="M512-64c282.769 0 512 229.231 512 512s-229.231 512-512 512c-282.77 0-512-229.23-512-512s229.23-512 512-512zM542.669 476.578c44.676 12.207 74.833 50.116 74.833 90.894 0 50.278-47.39 95.030-105.532 95.030-59.26 0-105.472-43.674-105.472-95.002 0-25.598-21.368-46.348-47.727-46.348h-3.846c-26.359 0-47.727 20.75-47.727 46.348 0 104.609 92.982 187.7 204.774 187.7 110.076 0 204.826-84.698 204.826-187.724 0-83.055-60.783-156.493-146.202-179.866-6.426-1.754-8.951-6.157-8.951-9.536v-22.165c0-26.628-22.229-48.213-49.647-48.213-27.422 0-49.647 21.585-49.647 48.213v22.157c0 46.477 33.152 85.623 80.316 98.513zM567.497 194.697c0-29.764-24.849-53.897-55.501-53.897s-55.501 24.132-55.501 53.897c0 29.769 24.849 53.901 55.501 53.901s55.501-24.132 55.501-53.901z" />
<glyph unicode="&#xe924;" glyph-name="share2" horiz-adv-x="939" d="M896 768c0-106.039-85.961-192-192-192-37.381 0-72.267 10.683-101.771 29.161l-237.539-137.143c12.369-25.377 19.31-53.887 19.31-84.018 0-11.987-1.098-23.717-3.2-35.095l173.775-100.329c35.197 43.564 89.058 71.424 149.425 71.424 106.039 0 192-85.961 192-192 0-67.379-34.705-126.652-87.223-160.913l-5.661-9.805-5.391 3.106c-27.721-15.531-59.688-24.388-93.725-24.388-105.152 0-190.561 84.531-191.982 189.344l-195.242 112.723c-33.559-28.721-77.142-46.067-124.776-46.067-106.039 0-192 85.961-192 192s85.961 192 192 192c27.141 0 52.966-5.631 76.372-15.789l253.639 146.438c-6.491 19.265-10.010 39.898-10.010 61.351 0 106.039 85.961 192 192 192s192-85.961 192-192z" />
<glyph unicode="&#xe925;" glyph-name="refresh" horiz-adv-x="1088" d="M263.773 868.083c91.076 50.348 196.049 69.734 299.101 55.235 102.808-14.464 198.143-61.869 271.724-135.095l141.331-131.353v175.575c0 26.509 21.491 48 48 48 26.515 0 48-21.491 48-48v-288c0-26.51-21.485-48-48-48h-288c-26.509 0-48 21.49-48 48s21.491 48 48 48h168.307l-135.891 126.302c-0.358 0.332-0.704 0.668-1.043 1.011-58.925 58.819-135.361 96.897-217.802 108.496s-166.42-3.909-239.281-44.188c-72.861-40.278-130.659-103.146-164.684-179.129s-42.435-160.966-23.962-242.145c18.473-81.18 62.828-154.153 126.383-207.932s142.864-85.446 225.98-90.227c83.116-4.781 165.535 17.574 234.838 63.706 69.306 46.131 121.741 113.536 149.408 192.059 8.806 25.003 36.218 38.131 61.222 29.322 24.998-8.81 38.131-36.223 29.318-61.221-34.579-98.157-100.122-182.413-186.752-240.077s-189.656-85.613-293.551-79.629c-103.895 5.978-203.033 45.562-282.476 112.781-79.443 67.226-134.887 158.445-157.978 259.917s-12.58 207.702 29.952 302.681 114.778 173.563 205.856 223.911z" />
<glyph unicode="&#xe926;" glyph-name="home" d="M445.479 939.29c39.685 27.584 92.096 27.617 131.816 0.082l396.204-274.665c31.607-21.916 50.501-58.152 50.501-96.876v-514.326c0-64.896-52.096-117.504-116.352-117.504h-791.296c-64.26 0-116.352 52.608-116.352 117.504v514.364c0 38.672 18.841 74.867 50.385 96.793l395.096 274.628zM349.566 307.001c-25.959 0-47.001-21.043-47.001-47.001s21.043-47.001 47.001-47.001h324.863c25.959 0 47.001 21.043 47.001 47.001s-21.043 47.001-47.001 47.001h-324.863z" />
<glyph unicode="&#xe927;" glyph-name="alert-circle" d="M449.203 862.588c19.17 10.792 40.798 16.463 62.797 16.463s43.627-5.67 62.794-16.463c19.172-10.793 35.237-26.344 46.643-45.153l0.125-0.203 361.734-603.899c11.179-19.354 17.089-41.296 17.152-63.647s-5.729-44.328-16.794-63.744c-11.071-19.416-27.028-35.595-46.29-46.933-19.263-11.332-41.159-17.425-63.511-17.675h-723.709c-22.349 0.245-44.244 6.343-63.507 17.675-19.263 11.338-35.222 27.517-46.29 46.933s-16.859 41.392-16.796 63.744c0.063 22.352 5.976 44.294 17.153 63.647l0.347 0.592 361.387 603.307 36.602-21.924-36.479 22.128c11.409 18.809 27.474 34.36 46.643 45.153zM475.572 773.263l-361.11-602.847c-3.635-6.389-5.556-13.614-5.577-20.969-0.021-7.447 1.909-14.774 5.598-21.248s9.009-11.867 15.43-15.644c6.365-3.743 13.592-5.774 20.973-5.888h722.227c7.384 0.114 14.609 2.145 20.975 5.888 6.417 3.777 11.736 9.17 15.428 15.644 3.686 6.474 5.621 13.801 5.598 21.248-0.023 7.356-1.94 14.581-5.575 20.969l-361.060 602.762c-0.017 0.028-0.034 0.056-0.052 0.085-3.8 6.232-9.135 11.385-15.496 14.966-6.39 3.598-13.599 5.488-20.932 5.488s-14.543-1.89-20.932-5.488c-6.361-3.582-11.696-8.735-15.496-14.966zM512 618.667c23.564 0 42.667-19.103 42.667-42.667v-170.667c0-23.563-19.103-42.667-42.667-42.667s-42.667 19.103-42.667 42.667v170.667c0 23.564 19.103 42.667 42.667 42.667zM469.333 234.667c0 23.563 19.103 42.667 42.667 42.667h0.427c23.564 0 42.667-19.103 42.667-42.667s-19.103-42.667-42.667-42.667h-0.427c-23.564 0-42.667 19.103-42.667 42.667z" />
<glyph unicode="&#xe928;" glyph-name="camera" horiz-adv-x="1152" d="M451.24 928c-57.417 0-110.432-30.766-138.919-80.618l-60.599-106.049h-49.050c-88.365 0-160-71.635-160-160v-453.333c0-88.365 71.635-160 160-160h746.666c88.365 0 160 71.635 160 160v453.333c0 88.366-71.635 160-160 160h-49.050l-60.595 106.049c-28.493 49.852-81.504 80.618-138.925 80.618h-249.528zM404.933 794.461c9.496 16.618 27.167 26.872 46.307 26.872h249.528c19.142 0 36.813-10.255 46.31-26.872l75.955-132.922c9.491-16.617 27.168-26.872 46.304-26.872h80c29.459 0 53.331-23.878 53.331-53.334v-453.333c0-29.453-23.872-53.331-53.331-53.331h-746.666c-29.455 0-53.334 23.878-53.334 53.331v453.333c0 29.455 23.878 53.334 53.334 53.334h80c19.139 0 36.811 10.255 46.306 26.872l75.955 132.922zM576.005 128c147.278 0 266.664 119.392 266.664 266.667s-119.386 266.666-266.664 266.666c-147.276 0-266.666-119.391-266.666-266.666s119.391-266.667 266.666-266.667zM736.006 394.667c0-88.363-71.635-159.998-160.001-159.998s-160 71.635-160 159.998c0 88.365 71.635 160 160 160s160.001-71.635 160.001-160z" />
<glyph unicode="&#xe929;" glyph-name="arrow-thin" horiz-adv-x="614" d="M85.562 848.638c23.328 23.328 61.148 23.328 84.476 0l358.4-358.4c23.328-23.327 23.328-61.148 0-84.476l-358.4-358.4c-23.328-23.327-61.148-23.327-84.476 0-23.327 23.328-23.327 61.149 0 84.476l316.162 316.162-316.162 316.162c-23.327 23.328-23.327 61.149 0 84.476z" />
<glyph unicode="&#xe92a;" glyph-name="off" d="M270.687 788.212c18.232-21.614 15.492-53.916-6.122-72.148-83.598-70.519-136.564-175.881-136.564-293.663 0-212.081 171.922-384 384-384 212.076 0 384 171.919 384 384 0 117.782-52.966 223.144-136.566 293.663-21.612 18.233-24.356 50.535-6.118 72.148 18.232 21.614 50.534 24.355 72.146 6.122 105.677-89.144 172.938-222.71 172.938-371.934 0-268.631-217.769-486.4-486.4-486.4s-486.4 217.769-486.4 486.4c0 149.224 67.262 282.79 172.938 371.934 21.614 18.233 53.916 15.492 72.148-6.122zM512 960c28.278 0 51.2-22.923 51.2-51.2v-307.2c0-28.277-22.922-51.2-51.2-51.2-28.277 0-51.2 22.923-51.2 51.2v307.2c0 28.277 22.923 51.2 51.2 51.2z" />
<glyph unicode="&#xe92b;" glyph-name="add-wallet" d="M567.516 703.991h200.484c4.762 0 9.477-0.195 14.136-0.577-19.968 27.823-55.695 41.996-90.88 32.826l-123.74-32.249zM224.315 701.056l-0.408 1.566 445.825 116.193c91.976 23.97 185.81-31.813 208.691-124.064l10.056-40.549c31.002-30.9 50.186-73.649 50.186-120.878v-298.665c0-94.259-76.411-170.67-170.665-170.67h-256.001v85.335h256.001c47.13 0 85.335 38.205 85.335 85.335v298.665c0 47.128-38.205 85.333-85.335 85.333h-512.001c-47.128 0-85.334-38.205-85.334-85.333v-42.667h-85.333v42.667c0 83.43 59.865 152.878 138.982 167.731zM725.335 384c0-35.348-28.652-64-64-64s-64 28.652-64 64c0 35.348 28.652 64 64 64s64-28.652 64-64zM277.335 448c23.564 0 42.666-19.103 42.666-42.665v-106.67h106.666c23.564 0 42.667-19.103 42.667-42.665s-19.103-42.665-42.667-42.665h-106.666v-106.67c0-23.562-19.103-42.665-42.666-42.665s-42.667 19.103-42.667 42.665v106.67h-106.666c-23.564 0-42.666 19.103-42.666 42.665s19.102 42.665 42.666 42.665h106.666v106.67c0 23.562 19.103 42.665 42.667 42.665z" />
<glyph unicode="&#xe92c;" glyph-name="menu" horiz-adv-x="1317" d="M82.312 831.999c0 35.346 28.653 64.001 64.001 64.001h1024c35.347 0 64.001-28.653 64.001-64.001s-28.652-64.001-64.001-64.001h-1024c-35.346 0-64.001 28.654-64.001 64.001zM82.312 448c0 35.345 28.653 64.001 64.001 64.001h1024c35.347 0 64.001-28.654 64.001-64.001s-28.652-64.001-64.001-64.001h-1024c-35.346 0-64.001 28.654-64.001 64.001zM146.313 128c-35.346 0-64.001-28.652-64.001-64.001s28.653-64.001 64.001-64.001h1024c35.347 0 64.001 28.652 64.001 64.001s-28.652 64.001-64.001 64.001h-1024z" />
<glyph unicode="&#xe92d;" glyph-name="assets-filled" d="M170.667 874.667c-70.692 0-128-57.308-128-128v-597.333c0-70.694 57.308-128 128-128h682.667c70.694 0 128 57.306 128 128v128h-234.667c-82.475 0-149.333 66.859-149.333 149.333s66.859 149.333 149.333 149.333h234.667v170.667c0 70.692-57.306 128-128 128h-682.667zM981.333 490.667h-234.667c-35.345 0-64-28.655-64-64s28.655-64 64-64h234.667v128z" />
<glyph unicode="&#xe92e;" glyph-name="close" d="M842.146 23.514c26.056-26.056 68.285-26.056 94.341 0 26.044 26.044 26.044 68.279 0 94.329l-330.158 330.149 330.158 330.162c26.056 26.047 26.056 68.282 0 94.33-26.044 26.047-68.279 26.047-94.329 0l-330.159-330.162-330.163 330.163c-26.047 26.047-68.282 26.047-94.33 0s-26.047-68.282 0-94.33l330.163-330.163-330.152-330.149c-26.047-26.056-26.047-68.285 0-94.341 26.047-26.044 68.282-26.044 94.33 0l330.152 330.16 330.148-330.148z" />
<glyph unicode="&#xe92f;" glyph-name="ido-filled" d="M512 917.333c259.204 0 469.333-210.128 469.333-469.333 0-259.204-210.129-469.333-469.333-469.333-259.206 0-469.333 210.129-469.333 469.333 0 259.206 210.128 469.333 469.333 469.333zM591.791 632.983c-25.924 0-46.933-21.013-46.933-46.933s21.009-46.933 46.933-46.933h19.277l-157.845-157.843-100.571 67.046c-15.765 10.509-36.303 10.509-52.068 0l-198.879-132.587c-21.567-14.379-27.395-43.516-13.017-65.084s43.518-27.396 65.085-13.018l172.845 115.23 106.552-71.036c18.615-12.407 43.401-9.954 59.221 5.867l265.169 265.17c13.423 13.423 17.442 33.61 10.176 51.148s-24.38 28.973-43.362 28.973h-132.582z" />
<glyph unicode="&#xe930;" glyph-name="swap-filled" d="M512 917.333c259.204 0 469.333-210.128 469.333-469.333 0-259.204-210.129-469.333-469.333-469.333-259.206 0-469.333 210.129-469.333 469.333 0 259.206 210.128 469.333 469.333 469.333zM699.554 480.26c9.506 0 14.263 11.494 7.535 18.214l-152.422 152.192v-85.333h-213.333c-23.564 0-42.667-19.103-42.667-42.667s19.103-42.667 42.667-42.667h256c1.596 0 3.174 0.090 4.723 0.26h97.498zM325.641 405.333c-9.67 0-14.35-11.836-7.296-18.449l150.988-141.551v74.667h213.333c23.565 0 42.667 19.102 42.667 42.667s-19.102 42.667-42.667 42.667h-357.026z" />
<glyph unicode="&#xe931;" glyph-name="link" d="M516.693 303.36l-165.547-165.549c-20.044-19.341-46.812-30.15-74.667-30.15s-54.623 10.81-74.666 30.15c-9.83 9.792-17.631 21.427-22.953 34.24-5.322 12.819-8.061 26.554-8.061 40.429s2.739 27.61 8.061 40.429c5.322 12.813 13.123 24.448 22.953 34.24l165.546 165.544c8.035 8.035 12.548 18.931 12.548 30.294s-4.513 22.259-12.548 30.293c-8.034 8.035-18.931 12.548-30.293 12.548s-22.259-4.513-30.293-12.548l-165.547-165.973c-33.35-36.299-51.387-84.081-50.344-133.368 1.044-49.28 21.086-96.256 55.943-131.11 34.856-34.861 81.832-54.899 131.115-55.942 49.284-1.050 97.065 16.992 133.366 50.342l165.973 165.542c8.035 8.038 12.548 18.931 12.548 30.298 0 11.36-4.513 22.259-12.548 30.291s-18.931 12.55-30.293 12.55c-11.362 0-22.259-4.518-30.293-12.55v0zM882.771 818.773c-35.891 35.669-84.435 55.69-135.040 55.69-50.598 0-99.149-20.020-135.038-55.69l-165.974-165.546c-3.978-3.978-7.133-8.701-9.286-13.899s-3.261-10.769-3.261-16.395c0-5.626 1.108-11.197 3.261-16.394s5.308-9.921 9.286-13.899c3.978-3.978 8.701-7.134 13.899-9.287s10.769-3.261 16.395-3.261c5.626 0 11.197 1.108 16.394 3.261s9.921 5.309 13.899 9.287l165.545 165.547c20.045 19.344 46.816 30.154 74.669 30.154s54.624-10.81 74.669-30.154c9.83-9.791 17.626-21.428 22.95-34.241s8.064-26.551 8.064-40.426c0-13.875-2.739-27.613-8.064-40.426s-13.12-24.449-22.95-34.241l-165.549-165.546c-4-3.967-7.174-8.685-9.338-13.885-2.17-5.199-3.283-10.776-3.283-16.409s1.114-11.209 3.283-16.408c2.163-5.199 5.338-9.918 9.338-13.885 3.968-3.999 8.685-7.173 13.882-9.34 5.203-2.166 10.778-3.281 16.41-3.281s11.213 1.116 16.41 3.281c5.203 2.166 9.92 5.341 13.888 9.34l165.542 165.973c35.674 35.892 55.693 84.438 55.693 135.040s-20.019 99.148-55.693 135.040v0zM376.746 312.749c3.987-3.955 8.715-7.085 13.914-9.21s10.765-3.2 16.38-3.168c5.615-0.032 11.182 1.043 16.38 3.168s9.926 5.254 13.914 9.21l209.918 209.918c8.038 8.034 12.55 18.931 12.55 30.293s-4.512 22.259-12.55 30.293c-8.033 8.035-18.929 12.548-30.292 12.548s-22.259-4.514-30.293-12.548l-209.92-209.92c-3.999-3.966-7.173-8.685-9.34-13.884s-3.281-10.776-3.281-16.409c0-5.633 1.116-11.209 3.281-16.408s5.34-9.921 9.34-13.883z" />
<glyph unicode="&#xe932;" glyph-name="download" d="M353.707 392.96c-3.999-3.968-7.173-8.687-9.339-13.884-2.166-5.201-3.281-10.778-3.281-16.41s1.115-11.209 3.281-16.41c2.166-5.197 5.34-9.916 9.339-13.884l128-128c3.968-3.998 8.687-7.172 13.884-9.34 5.201-2.167 10.778-3.281 16.41-3.281s11.209 1.114 16.41 3.281c5.197 2.167 9.916 5.342 13.884 9.34l128 128c8.034 8.034 12.548 18.931 12.548 30.293s-4.514 22.259-12.548 30.293c-8.034 8.034-18.931 12.548-30.293 12.548s-22.259-4.514-30.293-12.548l-55.040-55.467v494.507c0 11.316-4.497 22.168-12.497 30.17s-18.854 12.497-30.17 12.497c-11.315 0-22.17-4.495-30.17-12.497s-12.497-18.854-12.497-30.17v-494.507l-55.040 55.467c-3.966 3.998-8.685 7.172-13.885 9.34s-10.776 3.281-16.409 3.281c-5.632 0-11.209-1.114-16.409-3.281s-9.918-5.342-13.885-9.34zM768 576h-85.333c-11.315 0-22.17-4.495-30.17-12.497s-12.497-18.854-12.497-30.17c0-11.315 4.497-22.17 12.497-30.17s18.854-12.497 30.17-12.497h85.333c11.315 0 22.17-4.497 30.17-12.497s12.497-18.854 12.497-30.17v-298.667c0-11.315-4.497-22.17-12.497-30.17s-18.854-12.497-30.17-12.497h-512c-11.316 0-22.168 4.497-30.17 12.497s-12.497 18.854-12.497 30.17v298.667c0 11.315 4.495 22.17 12.497 30.17s18.854 12.497 30.17 12.497h85.333c11.316 0 22.168 4.497 30.17 12.497s12.497 18.854 12.497 30.17c0 11.316-4.495 22.168-12.497 30.17s-18.854 12.497-30.17 12.497h-85.333c-33.948 0-66.505-13.486-90.51-37.49s-37.49-56.564-37.49-90.51v-298.667c0-33.946 13.486-66.505 37.49-90.509s56.562-37.491 90.51-37.491h512c33.946 0 66.505 13.487 90.509 37.491s37.491 56.563 37.491 90.509v298.667c0 33.946-13.487 66.505-37.491 90.51s-56.563 37.49-90.509 37.49z" />
<glyph unicode="&#xe933;" glyph-name="globe" d="M85.333 448c0 235.642 191.025 426.667 426.667 426.667 235.639 0 426.667-191.025 426.667-426.667 0-235.639-191.027-426.667-426.667-426.667-235.642 0-426.667 191.027-426.667 426.667zM406.153 772.604c-123.667-40.299-216.306-149.302-232.846-281.937h127.858c9.718 100.828 46.020 197.415 104.987 281.937zM617.847 772.604c58.965-84.522 95.27-181.109 104.986-281.937h127.859c-16.538 132.636-109.18 241.639-232.845 281.937zM637.035 490.667c-11.499 101.245-54.613 198.054-125.035 279.076-70.421-81.022-113.538-177.83-125.033-279.076h250.068zM386.967 405.333c11.496-101.244 54.612-198.054 125.033-279.074 70.421 81.020 113.536 177.83 125.035 279.074h-250.068zM301.166 405.333h-127.859c16.54-132.638 109.179-241.638 232.847-281.937-58.968 84.523-95.27 181.107-104.989 281.937zM617.843 123.396c123.669 40.299 216.311 149.299 232.849 281.937h-127.859c-9.719-100.83-46.020-197.414-104.99-281.937z" />
<glyph unicode="&#xe934;" glyph-name="triangle-down" horiz-adv-x="1280" d="M1039.344 764.406h-843.75l421.875-632.813z" />
<glyph unicode="&#xe935;" glyph-name="check-filled" d="M512.021 917.336c-259.206 0-469.334-210.128-469.334-469.333 0-259.203 210.128-469.334 469.334-469.334 259.204 0 469.336 210.131 469.336 469.334 0 259.206-210.131 469.333-469.336 469.333zM734.573 524.884l-249.308-255.7c-16.477-16.896-43.484-17.395-60.574-1.12l-134.095 127.709c-17.064 16.251-17.723 43.258-1.471 60.322s43.258 17.722 60.322 1.471l103.864-98.918 220.162 225.807c16.448 16.872 43.462 17.213 60.333 0.764s17.216-43.463 0.768-60.335z" />
</font>
</defs>
</svg>
